[720P][经典完美珍藏][七宗罪][国英双语/中英字幕][720p][小体积2.96G][迅雷快传]

  • 片名:[720P][经典完美珍藏][七宗罪][国英双语/中英字幕][720p][小体积2.96G][迅雷快传]
  • 导演:大卫・芬奇 David Fincher
  • 类别:犯罪、剧情、惊怵、神秘
  • 地区:美国
  • 语言:英语、普通话
  • 主演:布拉德・皮特 .... Detective David Mills/摩根・弗里曼 .... Detective Lt. William Somerset/凯文・斯帕西 .... John Doe/李・艾尔米 .... Police Captain/格温妮丝・帕特洛 .... Tracy Mills/查尔斯・达顿 .... Cop (uncredited)/约翰・迈克格雷 .... California/Andrew Kevin Walker .... Dead Man/Dominique Jennings .... TV News Reporter/Julie Araskog .... Mrs. Gould/Richmond Arquette .... Delivery Man/Lexie Bigham .... Sweating Cop at Massage Parlour/Ron Blair .... Cop at Massage Parlour/马克・布恩 .... Greasy FBI Man/Gene Borkan .... Eli Gould (Sin of Greed)
  • 片长:126mins
  • 中文名:七宗罪 美OAR版本
  • 外文名:Se7en
  • IMDB评分:8.5/10 (138,513 votes)
  • 视频尺寸:1280x720【编码格式】:x264+
影片简介
威廉是纽约警察局的刑事警官,还有一周就退休了。这时,上司又给他派了一个新搭档――年轻气盛的大卫。大卫对威廉办案的方式很不以为然。
他们接到了一个案子,一个胖得出奇的男人在家中被杀,可他们又没有发现什么线索。这时另一起案子发生了,律师格特被杀害。在现场的地板上用血写着两个字:贪婪。威廉若有所思。他重新回到前一个案发现场,终于在冰箱后面发现了两个字:暴食。他根据《失乐园》中的语句──基督教的七重罪孽:暴食、贪婪、懒惰、愤怒、骄傲、淫欲和嫉妒认为,还会有新的罪案发生。但大卫并不相信。
大卫的妻子翠西邀请威廉来家中吃饭,大卫有些不高兴,但翠西却和威廉很谈得来。在现场发现的指纹使律师的当事人维克多成了怀疑对象。他有前科,而且是个变态者。但当警察赶去拘捕维克多时,却发现他早已经死了。在墙上写着 “懒惰”二字。通过图书馆内部的调查资料,威廉终于知道记者约翰・多伊是凶手。威廉和大卫前去寻找约翰,但他已经溜走了。在约翰家中,他们发现了一个金发妓女的照片。但等他们找到她时,她已死了,旁边又是“淫欲”两字。
到星期日,威廉就要退休了,此时,约翰打来了电话,告诉他们他又下手了。一个女人赤裸地死在床上,边上写着“骄傲”。威廉刚决定干完此案再退休,但约翰却突然来自首了。威廉认为这不可能,因为还有两条罪未完,约翰一定还有花招。约翰招认还有两具尸体,并愿意带他们去找。这时,有人给大卫送了个包裹来。威廉打开时却发现了里面是翠西的头颅。约翰告诉大卫他由于“嫉妒”杀死了翠西。大卫难以抑制心中的怒火,开枪杀了约翰。他也犯了“愤怒”之罪。看着大卫被押上警车,威廉面对夕阳默默无语。
【影片评论】:
七天七次罪孽七次惩罚折射出一个人间新炼狱――纽约,造物主以冷眼旁观的态度置身事外,遗留下凄厉的雨滴与冰凉的目光。
大卫芬奇(David Fincher)混迹纽约街头每一阴暗角落,寻觅寄生都市的暴食、贪婪、懒惰、愤怒、骄傲、淫欲和嫉妒七重罪孽――即将解甲归田的纽约刑警老威廉(Morgan Freeman)与血气方刚的新扎师兄大卫(Brad Pitt)同时接手一单棘手命案,却被狡猾凶手玩弄于股掌之中,不知不觉卷入犯罪旋涡不可自拔。
《七宗罪》(Se7en,1995)继承了心理惊悚片精华,更以哲学的角度剖析罪案与罪犯心理,把以思考取代动作的类型电影发扬光大。大卫芬奇为影片营造了一个可怖的地狱氛围:阴森诡秘的罪案现场和惊心恐怖的尸体惨状,阴冷潮湿的横街窄巷和匪夷所思的表情独白。而抽丝剥茧式的剧力推进和线索解疑,把笼罩观众头顶多时的疑团一扫而光,但同时留给他们的却是沉重心情和反思病症的折磨。
通过《七宗罪》,新锐导演大卫芬奇展示了一套商标式的黑色电影理论,表达出对社会堕落、制度腐化和道德沦亡的人文关注以及对宗教信仰的质疑与迷茫。他初出道时的产品《异形3》(Alien3,1992)并非出类拔萃,但已旁敲侧击地探讨过类似深度主题,而及后的《搏击俱乐部》(Fight Club,1999),他更把敏锐触角伸入大城市人们冰冷无助的内心,他们只有通过遍体鳞伤来终结自己残喘的一口气。
用任何最酷最另类的词汇都不足以表达大卫芬奇的魔力世界,这位视觉大师可以借助稀拉的雨点、昏沉的布景、剧烈的光影对比和迅速的运动镜头,不经意中使你融入他的世界,让你成为他的镜头以及思维的仆役,甚至化作剧中人挥拳出击。大卫芬奇两次起用毕比特演绎自己的作品,看中的当然不是他的明星头衔,而是那种直逼主题的迷茫深邃神情和躁动不安犟劲。而毕比特的确十分出色地完成两个迥异角色,把大卫作品人物的神髓融汇贯通,完
参数信息
E:\HDiY-MKV\飞鸟娱乐(bbs.hdbird.com).七宗罪.720P.国英双语£柏林\七宗罪 Se7en.1995.OAR.BluRay.720p.x264.AC3-HDiY.mkv
General
Complete name : E:\HDiY-MKV\飞鸟娱乐(bbs.hdbird.com).七宗罪.720P.国英双语£柏林\七宗罪 Se7en.1995.OAR.BluRay.720p.x264.AC3-HDiY.mkv
Format : Matroska
File size : 2.96 GiB
Duration : 2h 6mn
Overall bit rate : 3 343 Kbps
Movie name : Recoded By HDiY Team
Encoded date : UTC 2010-06-09 13:33:12
Writing application : mkvmerge v3.4.0 ('Rapunzel') 编译于 May 15 2010 09:38:20
Writing library : libebml v0.8.0 + libmatroska v0.9.0
Video #1
ID : 1
Format : AVC
Format/Info : Advanced Video Codec
Format profile :
[email protected]
Format settings, CABAC : Yes
Format settings, ReFrames : 6 frames
Muxing mode : Container
[email protected]
Codec ID : V_MPEG4/ISO/AVC
Duration : 2h 6mn
Bit rate : 2 444 Kbps
Nominal bit rate : 2 511 Kbps
Width : 1 280 pixels
Height : 720 pixels
Display aspect ratio : 16:9
Frame rate : 23.976 fps
Resolution : 8 bits
Colorimetry : 4:2:0
Scan type : Progressive
Bits/(Pixel*Frame) : 0.111
Stream size : 2.16 GiB (73%)
Title :
[email protected]
Writing library : x264 core 80 r1376M 3feaec2
Encoding settings : cabac=1 / ref=6 / deblock=1:0:0 / analyse=0x3:0x133 / me=umh / subme=6 / psy=1 / psy_rd=1.0:0.0 / mixed_ref=0 / me_range=24 / chroma_me=1 / trellis=2 / 8x8dct=1 / cqm=1 / deadzone=21,11 / fast_pskip=0 / chroma_qp_offset=-2 / threads=3 / sliced_threads=0 / nr=0 / decimate=0 / mbaff=0 / constrained_intra=0 / bframes=6 / b_pyramid=2 / b_adapt=2 / b_bias=4 / direct=2 / wpredb=1 / wpredp=2 / keyint=250 / keyint_min=25 / scenecut=40 / rc_lookahead=40 / rc=2pass / mbtree=1 / bitrate=2511 / ratetol=0.5 / qcomp=0.60 / qpmin=10 / qpmax=51 / qpstep=4 / cplxblur=20.0 / qblur=0.5 / ip_ratio=1.40 / aq=1:1.00
Language : English
Audio #2
ID : 2
Format : AC-3
Format/Info : Audio Coding 3
Codec ID : A_AC3
Duration : 2h 6mn
Bit rate mode : Constant
Bit rate : 448 Kbps
Channel(s) : 6 channels
Channel positions : Front: L C R, Surround: L R, LFE
Sampling rate : 48.0 KHz
Stream size : 407 MiB (13%)
Title : English
Language : English
Audio #3
ID : 3
Format : AC-3
Format/Info : Audio Coding 3
Codec ID : A_AC3
Duration : 2h 6mn
Bit rate mode : Constant
Bit rate : 384 Kbps
Channel(s) : 6 channels
Channel positions : Front: L C R, Surround: L R, LFE
Sampling rate : 48.0 KHz
Stream size : 349 MiB (11%)
Title : Mandarin
Language : Chinese
Text #4
ID : 4
Format : ASS
Codec ID : S_TEXT/ASS
Codec ID/Info : Advanced Sub Station Alpha
Title : Bilingual Subtitles
Language : Chinese
Text #5
ID : 5
Format : ASS
Codec ID : S_TEXT/ASS
Codec ID/Info : Advanced Sub Station Alpha
Title : Bilingual Subtitles
Language : English
Text #6
ID : 6
Format : ASS
Codec ID : S_TEXT/ASS
Codec ID/Info : Advanced Sub Station Alpha
Title : Chinese Subtitles
Language : Chinese
Text #7
ID : 7
Format : ASS
Codec ID : S_TEXT/ASS
Codec ID/Info : Advanced Sub Station Alpha
Title : English Subtitles
Language : English
迅雷
来源网址:
pdf.worthsee.com PDF合并 PDF选页 PDF提取图片 PDF转HTML PDF分成单页 PDF提取文字