钢铁巨人 The Iron Giant (1999)

  • 片名:钢铁巨人 The Iron Giant (1999)
  • 导演:布拉德·伯德
  • 类别:喜剧/科幻/动画/冒险
  • 评分:8.6
  • 地区:美国
  • 语言:英语
  • 主演:艾力·马伦斯奥/范·迪塞尔/小哈里·康尼克/詹妮弗·安妮斯顿/克里斯托弗·麦克唐纳/詹姆斯·盖蒙/克萝丽丝·利奇曼/约翰·马奥尼/M·埃梅特·沃尔什/鲍伯·伯根/奥利·约翰斯顿/法兰克·汤玛斯
  • 上映日期:1999
  • 片长:86分钟
  • 作者:蒂姆·麦肯莱斯/布拉德·伯德/特德·休斯
  • 中文名:钢铁巨人
  • 外文名:The Iron Giant
  • 又名:铁巨人(台) / 大铁人(港)
  • 影片简介
  • 下载地址 (8)
  • 在线观看 (0)
  • 相关列表 (100+)
  • 相关图片 (4)
往日平静的洛克威小镇,近来怪事不断,先是农家被毁、车子损坏等。一天晚上,发电厂也遭到了破坏,导致全镇停电,引起了全镇居民的恐慌。小男孩霍加斯(艾力·马伦斯奥 Eli Marienthal 配音)觉得迹象很可疑,于是沿着电缆线走到了建在森林中的发电厂,发现了凶手——钢铁巨人(范·迪塞尔 Vin Diesel 配音)。开始霍加斯被钢铁巨人巨大的身躯吓坏了,但发现他被高压电缆线缠住,无法脱身。霍加斯没有打算将此事向大人们报告,而是打算救他出来,在多日的交往过程中,霍加斯发现他其实有颗善良的心,两人成了好朋友。钢铁巨人以铁为食,每天要消耗大量的铁,供不应求,霍加斯只好带他去狄恩(小哈里·康尼克 Harry Connick Jr.)旧车厂。 另一方面,政府派来了肯特(克里斯托弗·麦克唐纳 Christopher McDonald 配音),追查铁巨人的下落,并到...
往日平静的洛克威小镇,近来怪事不断,先是农家被毁、车子损坏等。一天晚上,发电厂也遭到了破坏,导致全镇停电,引起了全镇居民的恐慌。小男孩霍加斯(艾力·马伦斯奥 Eli Marienthal 配音)觉得迹象很可疑,于是沿着电缆线走到了建在森林中的发电厂,发现了凶手——钢铁巨人(范·迪塞尔 Vin Diesel 配音)。开始霍加斯被钢铁巨人巨大的身躯吓坏了,但发现他被高压电缆线缠住,无法脱身。霍加斯没有打算将此事向大人们报告,而是打算救他出来,在多日的交往过程中,霍加斯发现他其实有颗善良的心,两人成了好朋友。钢铁巨人以铁为食,每天要消耗大量的铁,供不应求,霍加斯只好带他去狄恩(小哈里·康尼克 Harry Connick Jr.)旧车厂。 另一方面,政府派来了肯特(克里斯托弗·麦克唐纳 Christopher McDonald 配音),追查铁巨人的下落,并到...
往日平静的洛克威小镇,近来怪事不断,先是农家被毁、车子损坏等。一天晚上,发电厂也遭到了破坏,导致全镇停电,引起了全镇居民的恐慌。小男孩霍加斯(艾力·马伦斯奥 Eli Marienthal 配音)觉得迹象很可疑,于是沿着电缆线走到了建在森林中的发电厂,发现了凶手——钢铁巨人(范·迪塞尔 Vin Diesel 配音)。开始霍加斯被钢铁巨人巨大的身躯吓坏了,但发现他被高压电缆线缠住,无法脱身。霍加斯没有打算将此事向大人们报告,而是打算救他出来,在多日的交往过程中,霍加斯发现他其实有颗善良的心,两人成了好朋友。钢铁巨人以铁为食,每天要消耗大量的铁,供不应求,霍加斯只好带他去狄恩(小哈里·康尼克 Harry Connick Jr.)旧车厂。 另一方面,政府派来了肯特(克里斯托弗·麦克唐纳 Christopher McDonald 配音),追查铁巨人的下落,并到处散播谣言。最后巨人被肯特发现,派出大量的军队来摧毁他,完全不顾小镇居民的安危,错误的将原子弹的发射了出去,钢铁巨人在危机关头将会如何解决危机……
没找到优质结果? 试试点普通搜索"钢铁巨人"普通搜索一下
  • (0) (0) (2) [铁巨人].The.Iron.Giant.1999.DVDRip.X264.AAC.4Audio.HALFCD-NORM.Chance[427.8 MB].mkv
    《铁巨人》(The Iron Giant)国粤英三语含导评
    导演:布拉德·伯德Brad Bird
    主演:詹妮弗·安妮斯顿Jennifer Aniston....Annie Hughes voice/范·迪塞尔Vin Diesel....The Iron Giant voice/克里斯托弗·麦克唐纳Christopher McDonald....Kent Mansley voice as Christopher MacDonald/John Mahoney....General Rogard voice/M. Emmet Walsh....Earl Stutz voice/Ollie Johnston....Train Engineer #1 voice/Michael Bird....Additional Voices voice/Rodger Bumpass....Additional Voices voice/Jennifer Darling....Additional Voices voice/Paul Eiding....Additional Voices voice/Charles Howerton....Additional Voices voice/米凯·麦高万Mickie McGowan....Additional Voices voice as Mickie T. McGowan/Philip Proctor....Additional Voices voice/Brian Tochi....Additional Voices voice/Frank Thomas....Train Engineer #2 voice/欢迎光临真正的NORM影视论坛→52norm.com/NORM 出品 必属精品! 经典港片系列
    年代:1999
    地区:美国
    类别:动画/家庭/剧情/科幻
  • (0) (0) (2) 钢铁巨人DVD国语配音中字.rmvb
    钢铁巨人
    导演:布拉德·伯德 Brad Bird
    主演:詹尼弗·安妮丝顿 Jennifer Aniston/哈里·康尼克 Harry Connick Jr. 范·迪瑟尔 Vin Diesel/詹姆斯·盖蒙 James Gammon 克劳斯·利特曼 Cloris Leachman/克里斯多弗·麦克唐纳 ChristopherMcDonald/约翰·马奥尼 John Mahoney 埃里·麦里恩道 Eli Marienthal
    年代:1999
    地区:美国
    类别:家庭 动画 科幻
  • (0) (0) (0) [动画][钢铁巨人 The Iron Giant][1999][范・迪塞尔][720P]
    (0) (0) (0) [动画][钢铁巨人 The Iron Giant][1999][范・迪塞尔][720P]
    [动画][钢铁巨人 The Iron Giant][1999][范・迪塞尔][720P]
    导演:布拉德・伯德
    主演:范・迪塞尔/詹妮弗・安妮斯顿/小哈里・康尼克/詹姆斯・盖蒙/克劳斯・利特曼/克里斯托弗・麦克唐纳/约翰・马奥尼/艾力・马伦斯奥/M.埃梅特・沃尔什
    年代:1999
    地区:美国
    类别:喜剧 / 动作 / 科幻 / 动画 / 家庭 / 犯罪 / 冒险
  • (0) (0) (1) [铁巨人].The.Iron.Giant.1999.DVDRip.X264.AAC.4Audio.HALFCD-NORM.Chance.mkv[电驴资源][427.82 MB]
    铁巨人/国粤英三语含导评/The Iron Giant
    导演:布拉德·伯德Brad Bird
    主演:詹妮弗·安妮斯顿Jennifer Aniston....Annie Hughes voice/范·迪塞尔Vin Diesel....The Iron Giant voice/克里斯托弗·麦克唐纳Christopher McDonald....Kent Mansley voice as Christopher MacDonald/John Mahoney....General Rogard voice/M. Emmet Walsh....Earl Stutz voice/Ollie Johnston....Train Engineer #1 voice/Michael Bird....Additional Voices voice/Rodger Bumpass....Additional Voices voice/Jennifer Darling....Additional Voices voice/Paul Eiding....Additional Voices voice/Charles Howerton....Additional Voices voice/米凯·麦高万Mickie McGowan....Additional Voices voice as Mickie T. McGowan/Philip Proctor....Additional Voices voice/Brian Tochi....Additional Voices voice/Frank Thomas....Train Engineer #2 voice/欢迎光临真正的NORM影视论坛→52norm.com/NORM 出品 必属精品! 经典港片系列
    年代:1999
    地区:美国
    类别:动画/家庭/剧情/科幻
  • (0) (0) (0) [完结][动画][钢铁巨人 The Iron Giant][1999][范·迪塞尔][720P]
    (0) (0) (0) [完结][动画][钢铁巨人 The Iron Giant][1999][范·迪塞尔][720P]
    [完结][动画][钢铁巨人 The Iron Giant][1999][范·迪塞尔][720P]
    导演:布拉德·伯德
    主演:范·迪塞尔/詹妮弗·安妮斯顿/小哈里·康尼克/詹姆斯·盖蒙/克劳斯·利特曼/克里斯托弗·麦克唐纳/约翰·马奥尼/艾力·马伦斯奥/M.埃梅特·沃尔什/e\3e\钢铁巨人 The.Iron.Giant.1999.720p.HDTV.x264.-HDL.mkv/General/Complete name : e\3e\钢铁巨人 The.Iron.Giant.1999.720p.HDTV.x264.-HDL.mkv/Format : Matroska/File size : 2.41 GiB/Duration : 1h 26mn/Overall bit rate : 3 983 Kbps/Movie name : The.Iron.Giant.1999.720p.HDTV.x264.-HDL.-VoLoNa by HDtvSHek/Encoded date : UTC 2009-08-27 09:35:40/Writing application : mkvmerge v2.9.7 ('Tenderness') built on Jul 13 2009 22:24:14/Writing library : libebml v0.7.7 + libmatroska v0.8.1/Video #1/ID : 1/Format : AVC/Format/Info : Advanced Video Codec/Format profile :/[email protected]/Format settings, CABAC : Yes/Format settings, ReFrames : 3 frames/Muxing mode : Container [email protected]/Codec ID : V_MPEG4/ISO/AVC/Duration : 1h 26mn/Bit rate : 3 135 Kbps/Nominal bit rate : 3 216 Kbps/Width : 1 280 pixels/Height : 538 pixels/Display aspect ratio : 2.35/Frame rate : 23.976 fps/Resolution : 24 bits/Colorimetry : 4:2:0/Scan type : Progressive/Bits/(Pixel*Frame) : 0.190/Stream size : 1.89 GiB (79%)/Title : The.Iron.Giant.1999.720p.HDTV.x264.-HDL.-VoLoNa/Language : English/Audio #2/ID : 2/Format : AC-3/Format/Info : Audio Coding 3/Codec ID : A_AC3/Duration : 1h 26mn/Bit rate mode : Constant/Bit rate : 384 Kbps/Channel(s) : 6 channels/Channel positions : Front: L C R, Surround: L R, LFE/Sampling rate : 48.0 KHz/Stream size : 238 MiB (10%)/Title : Russian - DUB/Language : Russian/Audio #3/ID : 3/Format : AC-3/Format/Info : Audio Coding 3/Codec ID : A_AC3/Duration : 1h 26mn/Bit rate mode : Constant/Bit rate : 384 Kbps/Channel(s) : 6 channels/Channel positions : Front: L C R, Surround: L R, LFE/Sampling rate : 48.0 KHz/Stream size : 238 MiB (10%)/Title : English/Language : English
    年代:1999
    地区:美国
    类别:喜剧 / 动作 / 科幻 / 动画 / 家庭 / 犯罪 / 冒险
  • (0) (0) (0) [铁巨人].The.Iron.Giant.1999.DVDRip.X264.AAC.4Audio.HALFCD-NORM.Chance.mkv[电驴资源][427.82 MB]
    铁巨人/The Iron Giant/国粤英三语含导评HALFCD
    导演:布拉德·伯德Brad Bird
    主演:詹妮弗·安妮斯顿Jennifer Aniston....Annie Hughes voice/范·迪塞尔Vin Diesel....The Iron Giant voice/克里斯托弗·麦克唐纳Christopher McDonald....Kent Mansley voice as Christopher MacDonald/John Mahoney....General Rogard voice/M. Emmet Walsh....Earl Stutz voice/Ollie Johnston....Train Engineer #1 voice/Michael Bird....Additional Voices voice/Rodger Bumpass....Additional Voices voice/Jennifer Darling....Additional Voices voice/Paul Eiding....Additional Voices voice/Charles Howerton....Additional Voices voice/米凯·麦高万Mickie McGowan....Additional Voices voice as Mickie T. McGowan/Philip Proctor....Additional Voices voice/Brian Tochi....Additional Voices voice/Frank Thomas....Train Engineer #2 voice/欢迎光临真正的NORM影视论坛→52norm.com/NORM 出品 必属精品! 经典港片系列/VC发布,NORM出品,NORM-HALFCD品质保证,转载请注明,欢迎大家来加速!/引用注意:NORM作品都是小体积 多语言 多字幕 无水印 无广告版本。单文件里面自带外挂可调整字幕,字幕是以srt ssa ass形式封装进去的,并非内嵌字幕,可以根据自己的喜欢方便调整所需要的字幕格式或者颜色字体!并且字幕音轨都是可以用mmg软件进行分离提取的,方便大家转换其他格式和DIY作品!
    年代:1999
    地区:美国
    类别:动画/家庭/剧情/科幻
convert.freelrc.com 云音乐格式在线转换 QMC转MP3 QMC0转MP3 QMC3转MP3 QMCOGG转OGG QMCFLAC转FLAC NCM转MP3