[完结][喜剧][欢迎来北方 Bienvenue chez les Ch'tis][2008][720P+3eMKV+3ePAD]

  • 片名:[完结][喜剧][欢迎来北方 Bienvenue chez les Ch'tis][2008][720P+3eMKV+3ePAD]
  • 导演:Dany Boon
  • 类别:喜剧
  • 地区:法国
  • 语言:法语
  • 主演:Kad Merad ... Philippe Abrams/Dany Boon ... Antoine Bailleul/Zoé Félix ... Julie Abrams/Lorenzo Ausilia-Foret ... Rapha�0�5l Abrams/Anne Marivin ... Annabelle Deconninck/Philippe Duquesne ... Fabrice Canoli/Guy Lecluyse ... Yann Vandernoout/Line Renaud ... La maman d'Antoine/Alexandre Carrière ... Tony/Patrick Bosso ... Le gendarme A7/Zinedine Soualem ... Momo/Michel Galabru ... Le grand oncle de Julie/Stéphane Freiss ... Jean Sabrier/Jér�0�0me Commandeur ... L'inspecteur Lebic/Fred Personne ... M. Vasseur/e\3e\欢迎来北方 Bienvenue.chez.les.Ch'tis.2008.Blu-ray.RE.X264.720.DTS.SiluHD.mkv/General/Complete name : e\3e\欢迎来北方 Bienvenue.chez.les.Ch'tis.2008.Blu-ray.RE.X264.720.DTS.SiluHD.mkv/Format : Matroska/File size : 4.30 GiB/Duration : 1h 46mn/Overall bit rate : 5 802 Kbps/Encoded date : UTC 2008-12-05 00:22:35/Writing application : mkvmerge v2.2.0 ('Turn It On Again') built on Mar 10 2008 10:55:12/Writing library : libebml v0.7.7 + libmatroska v0.8.1/Video #1/ID : 1/Format : AVC/Format/Info : Advanced Video Codec/Format profile :/[email protected]/Format settings, CABAC : Yes/Format settings, ReFrames : 5 frames/Muxing mode : Container [email protected]/Codec ID : V_MPEG4/ISO/AVC/Duration : 1h 46mn/Bit rate : 4 177 Kbps/Nominal bit rate : 4 289 Kbps/Width : 1 280 pixels/Height : 544 pixels/Display aspect ratio : 2.35/Frame rate : 24.000 fps/Resolution : 24 bits/Colorimetry : 4:2:0/Scan type : Progressive/Bits/(Pixel*Frame) : 0.250/Stream size : 3.09 GiB (72%)/Writing library : x264 core 59 r839M 27c3071/Language : English/Audio #2/ID : 2/Format : DTS/Format/Info : Digital Theater Systems/Codec ID : A_DTS/Duration : 1h 46mn/Bit rate mode : Constant/Bit rate : 1 510 Kbps/Channel(s) : 6 channels/Channel positions : Front: L C R, Surround: L R, LFE/Sampling rate : 48.0 KHz/Resolution : 16 bits/Stream size : 1.12 GiB (26%)/Title : 1536k dts/Language : English
  • 片长:106mins
  • 中文名:欢迎来北方
  • 外文名:Bienvenue chez les Ch'tis
影片简介
在经历了去年本土电影票房不佳的颓势后,2008年的法国影坛迎来了开门红。一部中等成本的喜剧片《Bienvenue chez les Ch'tis(欢迎来到北方)》自上映以来,一路高歌凯进,打破多项法国历史票房记录,压倒众多好莱坞影片,成为了第一季度法国影坛毫无疑问的赢家。
这部之前并不为人看好的轻喜剧,已拿下一千两百六十万人次的票房,连续三周稳坐法国票房榜第一位。这个成绩甩开第二位的影片,苏菲·玛索精心演绎的二战巨作《阴影下的女人》,以及好莱坞大片《史前一万年》不小的差距,以目前的势头,极有可能成为本年度法国总票房冠军。
早在年初,法国人就把票房厚望寄托在动漫改编的喜剧《高卢英雄大战奥运会》上,然而这部法国历史上投资最大的影片(近八千万欧元,超一亿美金)却没能达到预期的效果,有可能赔得连成本都无法收回。当观众对今年影片质量略感失望之际,《欢迎来到北方》爆出了冷门,叫好又叫座,成了三月里法国人谈论最多的话题。
如单看情节,《欢迎来到北方》其实只是一个普通的生活轻喜剧。投资仅一千一百万欧元,导演是年轻的喜剧演员丹尼·伯恩,主演是他本人和老牌笑星卡德·梅哈德。影片讲述了一个法国南部人,调到法国北方的一个小城博格,去做邮局局长的简单故事。影片为展现了并不为人熟悉的法国北部风情,这里的生活文化,习俗口音,在导演的镜头下变成了一个个笑点。这种贴近生活的浪漫幽默,一直以来都是法国电影的独特之处,即使没有宏大的背景和当红的影星,单凭温馨的质感和流畅的情节,也能成为票房和口碑的赢家。
法国影坛计算票房的方法与别国有所不同,仅仅使用人次数,而非统计最终金额,以此来避免通货膨胀和货币兑换造成的影响,保证历史排名的公平性。因此,法国影史上最卖座的影片,还是那部我们都熟悉的《虎口脱险》,共计一千七百馀万人次,四十二年来尚无人能够打破。第二名《高卢英雄之女王任务》和第三名《来访者》基本为一千四百万左右人次。照目前的势头,《欢迎来到北方》的宣传攻势和拷贝加映数,已经打破了法国电影首周票房纪录,完全可能在下档前成功挤入历史总票房前三名。
郑重声明:
本站提供的所有影视作品均是在网上搜集任何涉及商业盈利目的均不得使用,
否则产生的一切后果将由您自己承担!本站将不对本站的任何内容负任何法律责任!
该下载内容仅做宽带测试使用,请在下载后24小时内删除。请购买正版!
解压密码:bbs.3e-online.com
720p: 4.29G 音轨:法
快传
http://kuai.xunlei.com/d/mNfqBwq40wAq5OlR093
Qq旋风
http://urlxf.qq.com/?3mQJ3qR
Bienvenue.chez.les.Ch'tis.2008.Blu-ray.RE.X264.720.DTS.SiluHD.mkv
3eMKV: 2.59G 音轨:法
快传
http://kuai.xunlei.com/d/mNfqBwq60wAq5OlR832
百度网盘
http://pan.baidu.com/share/link?shareid=2240767077&uk=3425762570
Qq旋风
http://urlxf.qq.com/?YVJVnib
bbs.3e-online.com Bienvenue.chez.les.Ch'tis.2008.Bluray.720p.x264-3eMKV.mkv
3ePAD: 1.48G 音轨:法
快传
http://kuai.xunlei.com/d/mNfqBwq80wAq5OlR469
百度网盘
http://pan.baidu.com/share/link?shareid=2241625581&uk=3425762570
Qq旋风
http://urlxf.qq.com/?jy2Ybeu
bbs.3e-online.com Bienvenue.chez.les.Ch'tis.2008.Bluray.720p.x264-3ePAD.mp4
中文字幕下载
http://sub.3e-online.com/thread-347690-1-1.html
来源网址:
NCM格式转换为MP3格式