十面埋伏 House.Of.Flying.Daggers.2004.BluRay.720p.x264.AC3-WoFei 中文字幕

  • 片名:十面埋伏 House.Of.Flying.Daggers.2004.BluRay.720p.x264.AC3-WoFei 中文字幕
  • 导演:张艺谋
  • 类别:动作/冒险/剧情/爱情
  • 地区:中国大陆
  • 语言:普通话
  • 主演:金城武 \ 刘德华 \ 章子怡 \ 宋丹丹/※※※※※※※ 资料信息 ※※※※※※※
  • 片长:118 mins
  • 中文名:十面埋伏
  • 外文名:House Of Flying Daggers
  • IMDB评分:7.6/10 (33,585 votes)
  • 视频尺寸:1280x720【编码格式】:x264+
影片简介
“佳山佳水佳风月千秋佳色,痴色痴色痴情梦一代痴人”斑斓绚丽的牡丹坊内,金捕头和刘捕头正在欣赏着盲妓小妹精彩绝伦的舞姿。突然小妹一剑刺向刘捕头,刘捕头躲过
这一击,将小妹拿下。
月黑风高之夜,黑衣人救出了小妹,在逃亡途中黑衣人不知不觉地爱上了小妹,这黑衣人就是金捕头。
可金捕头万万没想到的是小妹竟另有隐情,他所经历的一切都让他匪夷所思。
小妹受命于飞刀门,将金捕头押出斩首,他们来到一片花海,在漫天遍野的花海中,金捕头面对妖艳的小妹,两人情不自禁地共坠爱河……
正当小妹与金捕头卿卿我我时,此时刘捕头突然出现,三人不得不面对一道解不开的难题……
在漫天的雪花飞舞之中,官府与飞刀门都亮出底牌,惊天动地的雪中大战开始了……
※※※※※※※ 参数信息 ※※※※※※※
D:\飞鸟娱乐(bbs.wofei.net).十面埋伏.720P.中文字幕£子凡\十面埋伏 House.of.Flying.Daggers.2004.BluRay.720p.x264.AC3-WoFei.mkv
General
Complete name : D:\飞鸟娱乐(bbs.wofei.net).十面埋伏.720P.中文字幕£子凡\十面埋伏 House.of.Flying.Daggers.2004.BluRay.720p.x264.AC3-WoFei.mkv
Format : Matroska
File size : 2.72 GiB
Duration : 1h 58mn
Overall bit rate : 3 288 Kbps
Encoded date : UTC 2010-03-11 13:16:37
Writing application : mkvmerge v3.2.0 ('Beginnings') 编译于 Feb 12 2010 16:46:17
Writing library : libebml v0.7.9 + libmatroska v0.8.1
Video #1
ID : 1
Format : AVC
Format/Info : Advanced Video Codec
Format profile :
[email protected]
Format settings, CABAC : Yes
Format settings, ReFrames : 6 frames
Muxing mode : Container
[email protected]
Codec ID : V_MPEG4/ISO/AVC
Duration : 1h 58mn
Bit rate : 2 774 Kbps
Nominal bit rate : 2 838 Kbps
Width : 1 280 pixels
Height : 720 pixels
Display aspect ratio : 16:9
Frame rate : 23.976 fps
Resolution : 8 bits
Colorimetry : 4:2:0
Scan type : Progressive
Bits/(Pixel*Frame) : 0.126
Stream size : 2.29 GiB (84%)
Title : HDiy
Writing library : x264 core 80 r1376M 3feaec2
Encoding settings : cabac=1 / ref=6 / deblock=1:-1:-1 / analyse=0x3:0x133 / me=umh / subme=6 / psy=1 / psy_rd=1.0:0.0 / mixed_ref=0 / me_range=24 / chroma_me=1 / trellis=2 / 8x8dct=1 / cqm=1 / deadzone=21,11 / fast_pskip=0 / chroma_qp_offset=-2 / threads=3 / sliced_threads=0 / nr=0 / decimate=0 / mbaff=0 / constrained_intra=0 / bframes=6 / b_pyramid=2 / b_adapt=2 / b_bias=4 / direct=3 / wpredb=1 / wpredp=2 / keyint=250 / keyint_min=25 / scenecut=40 / rc_lookahead=40 / rc=2pass / mbtree=1 / bitrate=2838 / ratetol=1.0 / qcomp=0.60 / qpmin=10 / qpmax=51 / qpstep=4 / cplxblur=20.0 / qblur=0.5 / ip_ratio=1.40 / aq=2:1.00
Language : Chinese
Audio #2
ID : 2
Format : AC-3
Format/Info : Audio Coding 3
Codec ID : A_AC3
Duration : 1h 58mn
Bit rate mode : Constant
Bit rate : 448 Kbps
Channel(s) : 6 channels
Channel positions : Front: L C R, Surround: L R, LFE
Sampling rate : 48.0 KHz
Stream size : 380 MiB (14%)
Title : 国语
Language : Chinese
Text #3
ID : 3
Format : UTF-8
Codec ID : S_TEXT/UTF8
Codec ID/Info : UTF-8 Plain Text
Title : 中文
Language : Chinese
※※※※※※※ 截图信息 ※※※※※※※
来源网址:
NCM格式转换为MP3格式